อีลุ๊บตุ๊บป่อง รําวงย้อนยุค กิ่งแก้วโคราช Backing Track คาราโอเกะ

  • Uploaded 2 weeks ago in the category วิดีโอ
    Video: MPEG4 Video (H264) 1920x1080 25fps 2812kbps [V: VideoHandler [eng] (h264 high L5.1, yuv420p, 1920x1080, 2812 kb/s)]
    Audio: AAC 44100Hz stereo...
    Video: MPEG4 Video (H264) 1920x1080 25fps 2812kbps [V: VideoHandler [eng] (h264 high L5.1, yuv420p, 1920x1080, 2812 kb/s)]
    Audio: AAC 44100Hz stereo 192kbps [A: SoundHandler [eng] (aac lc, 44100 Hz, stereo, 192 kb/s)]
    General
    Complete name : อีลุ๊บตุ๊บป่อง รําวงย้อนยุค กิ่งแก้วโคราช Backing Track คาราโอเกะ.mp4
    Format : MPEG-4
    Format profile : Base Media / Version 2
    Codec ID : mp42 (mp42)
    File size : 52.8 MiB
    Duration : 2 min 26 s
    Overall bit rate mode : Variable
    Overall bit rate : 3 020 kb/s
    Codirector : codirector
    Production studio : studio
    ContentType : Unknown Type
    Encoded date : UTC 2020-09-08 13:56:33
    Tagged date : UTC 2020-09-08 13:56:33
    Video
    ID : 1
    Format : AVC
    Format/Info : Advanced Video Codec
    Format profile : High@L5.1
    Format settings : CABAC / 1 Ref Frames
    Format settings, CABAC : Yes
    Format settings, Reference fra : 1 frame
    Format settings, GOP : M=1, N=25
    Codec ID : avc1
    Codec ID/Info : Advanced Video Coding
    Duration : 2 min 26 s
    Bit rate mode : Variable
    Bit rate : 2 813 kb/s
    Maximum bit rate : 12.0 Mb/s
    Width : 1 920 pixels
    Height : 1 080 pixels
    Display aspect ratio : 16:9
    Frame rate mode : Constant
    Frame rate : 25.000 FPS
    Color space : YUV
    Chroma subsampling : 4:2:0
    Bit depth : 8 bits
    Scan type : Progressive
    Bits/(Pixel*Frame) : 0.054
    Stream size : 49.1 MiB (93%)
    Language : English
    Color range : Limited
    Color primaries : BT.709
    Transfer characteristics : BT.709
    Matrix coefficients : BT.709
    Codec configuration box : avcC
    Audio
    ID : 2
    Format : AAC LC
    Format/Info : Advanced Audio Codec Low Complexity
    Codec ID : mp4a-40-2
    Duration : 2 min 26 s
    Bit rate mode : Constant
    Bit rate : 192 kb/s
    Channel(s) : 2 channels
    Channel layout : L R
    Sampling rate : 44.1 kHz
    Frame rate : 43.066 FPS (1024 SPF)
    Compression mode : Lossy
    Stream size : 3.35 MiB (6%)
    Title : Stereo
    Language : English
    Default : Yes
    Alternate group : 1
  • # อีลุ๊บตุ๊บป่อง# รําวงย้อนยุค# กิ่งแก้วโคราช# backing# track# คาราโอเกะ
show more show less
    0 Comments and 0 replies