[คาราโอเกะ] รำเต้ย รำวงย้อนยุค กิ่งแก้วโคราช

  • Uploaded 2 weeks ago in the category วิดีโอ
    Video: MPEG4 Video (H264) 1280x720 30fps 533kbps [V: VideoHandler [eng] (h264 main L4.1, yuv420p, 1280x720, 533 kb/s)]
    Audio: AAC 44100Hz stereo 192...
    Video: MPEG4 Video (H264) 1280x720 30fps 533kbps [V: VideoHandler [eng] (h264 main L4.1, yuv420p, 1280x720, 533 kb/s)]
    Audio: AAC 44100Hz stereo 192kbps [A: SoundHandler [eng] (aac lc, 44100 Hz, stereo, 192 kb/s)]
    General
    Complete name : [คาราโอเกะ] รำเต้ย รำวงย้อนยุค กิ่งแก้วโคราช.mp4
    Format : MPEG-4
    Format profile : Base Media / Version 2
    Codec ID : mp42 (mp42)
    File size : 15.6 MiB
    Duration : 2 min 56 s
    Overall bit rate mode : Variable
    Overall bit rate : 743 kb/s
    Codirector : codirector
    Production studio : studio
    ContentType : Unknown Type
    Encoded date : UTC 2020-11-11 09:00:43
    Tagged date : UTC 2020-11-11 09:00:43
    Video
    ID : 1
    Format : AVC
    Format/Info : Advanced Video Codec
    Format profile : Main@L4.1
    Format settings : CABAC / 1 Ref Frames
    Format settings, CABAC : Yes
    Format settings, Reference fra : 1 frame
    Format settings, GOP : M=1, N=30
    Codec ID : avc1
    Codec ID/Info : Advanced Video Coding
    Duration : 2 min 56 s
    Bit rate mode : Variable
    Bit rate : 534 kb/s
    Maximum bit rate : 6 000 kb/s
    Width : 1 280 pixels
    Height : 720 pixels
    Display aspect ratio : 16:9
    Frame rate mode : Constant
    Frame rate : 30.000 FPS
    Color space : YUV
    Chroma subsampling : 4:2:0
    Bit depth : 8 bits
    Scan type : Progressive
    Bits/(Pixel*Frame) : 0.019
    Stream size : 11.2 MiB (72%)
    Language : English
    Color range : Limited
    Color primaries : BT.709
    Transfer characteristics : BT.709
    Matrix coefficients : BT.709
    Codec configuration box : avcC
    Audio
    ID : 2
    Format : AAC LC
    Format/Info : Advanced Audio Codec Low Complexity
    Codec ID : mp4a-40-2
    Duration : 2 min 56 s
    Bit rate mode : Constant
    Bit rate : 192 kb/s
    Channel(s) : 2 channels
    Channel layout : L R
    Sampling rate : 44.1 kHz
    Frame rate : 43.066 FPS (1024 SPF)
    Compression mode : Lossy
    Stream size : 4.04 MiB (26%)
    Title : Stereo
    Language : English
    Default : Yes
    Alternate group : 1
  • # คาราโอเกะ# รำเต้ย# รำวงย้อนยุค# กิ่งแก้วโคราช
show more show less
    0 Comments and 0 replies