คาราโอเกะ วอนหลวงพ่อรวย มนต์แคน แก่นคูน

  • Uploaded 6 months ago in the category วิดีโอ
    Video: MPEG4 Video (H264) 1360x768 30fps 620kbps [V: h264 constrained baseline L3.2, yuv420p, 1360x768, 620 kb/s]
    Audio: AAC 44100Hz stereo 197kbps ...
    Video: MPEG4 Video (H264) 1360x768 30fps 620kbps [V: h264 constrained baseline L3.2, yuv420p, 1360x768, 620 kb/s]
    Audio: AAC 44100Hz stereo 197kbps [A: SoundHandler (aac lc, 44100 Hz, stereo, 197 kb/s)]
    General
    Complete name : คาราโอเกะ วอนหลวงพ่อรวย มนต์แคน แก่นคูน.mp4
    Format : MPEG-4
    Format profile : Base Media
    Codec ID : isom (isom/iso2/avc1/mp41)
    File size : 28.8 MiB
    Duration : 4 min 52 s
    Overall bit rate : 825 kb/s
    Writing application : Lavf57.25.100
    Video
    ID : 1
    Format : AVC
    Format/Info : Advanced Video Codec
    Format profile : Baseline@L3.2
    Format settings : 1 Ref Frames
    Format settings, CABAC : No
    Format settings, Reference fra : 1 frame
    Codec ID : avc1
    Codec ID/Info : Advanced Video Coding
    Duration : 4 min 52 s
    Bit rate : 621 kb/s
    Width : 1 360 pixels
    Height : 768 pixels
    Display aspect ratio : 16:9
    Frame rate mode : Constant
    Frame rate : 30.000 FPS
    Color space : YUV
    Chroma subsampling : 4:2:0
    Bit depth : 8 bits
    Scan type : Progressive
    Bits/(Pixel*Frame) : 0.020
    Stream size : 21.6 MiB (75%)
    Codec configuration box : avcC
    Audio
    ID : 2
    Format : AAC LC
    Format/Info : Advanced Audio Codec Low Complexity
    Codec ID : mp4a-40-2
    Duration : 4 min 52 s
    Bit rate mode : Constant
    Bit rate : 198 kb/s
    Channel(s) : 2 channels
    Channel layout : L R
    Sampling rate : 44.1 kHz
    Frame rate : 43.066 FPS (1024 SPF)
    Compression mode : Lossy
    Stream size : 6.89 MiB (24%)
    Default : Yes
    Alternate group : 1
  • # คาราโอเกะ# วอนหลวงพ่อรวย# มนต์แคน# แก่นคูน
show more show less
    0 Comments and 0 replies